Forum forum.napiprojekt.pl Strona Główna


 FAQFAQ  RegulaminRegulamin   SzukajSzukaj   GrupyGrupy   RejestracjaRejestracja 
 ProfilProfil   Zaloguj się, by sprawdzić wiadomościZaloguj się, by sprawdzić wiadomości   ZalogujZaloguj  

Nie znajduje napisów obecnych w bazie

 
Napisz nowy temat   Odpowiedz do tematu    Forum forum.napiprojekt.pl Strona Główna -> Błędy
Zobacz poprzedni temat :: Zobacz następny temat  
Autor Wiadomość
sharimsejn



Dołączył: 12 Wrz 2013
Posty: 42

Podziękował: 0
Łącznie otrzymał 1 podziękowań w 1 postach

Ostrzeżenia: 0/5

PostWysłany: Pon Lis 11, 2019 20:02    Temat postu: Nie znajduje napisów obecnych w bazie Odpowiedz z cytatem

Program zainstalowany na komputerze na czysto. Wrzuciłem te napisy i to są dokładnie te dopasowane. Przekazujecie twórcy appki NapiDroid już od jakiegoś czasu moje zgłoszenia więc teraz wrzucam tą zagadkę dla twórcy samego NapiProjekt. Poodbijamy tą piłeczkę?



Władca Pierścieni: Dwie Wieże.mp4

4.492 GiB

23.976

03:55:31.222

Melinea, Timmy

2014-10-31

2439









Video
ID : 1
Format : AVC
Format/Info : Advanced Video Codec
Format profile : High@L4.1
Format settings : CABAC / 4 Ref Frames
Format settings, CABAC : Yes
Format settings, Reference frames : 4 frames
Codec ID : avc1
Codec ID/Info : Advanced Video Coding
Duration : 3 h 55 min
Bit rate : 2 500 kb/s
Width : 1 920 pixels
Height : 800 pixels
Display aspect ratio : 2.40:1
Frame rate mode : Constant
Frame rate : 23.976 (23976/1000) FPS
Color space : YUV
Chroma subsampling : 4:2:0
Bit depth : 8 bits
Scan type : Progressive
Bits/(Pixel*Frame) : 0.068
Stream size : 4.11 GiB (91%)
Writing library : x264 core 152 r2851M ba24899
Encoding settings : cabac=1 / ref=4 / deblock=1:-1:-1 / analyse=0x3:0x113 / me=umh / subme=9 / psy=1 / psy_rd=1.00:0.15 / mixed_ref=1 / me_range=24 / chroma_me=1 / trellis=2 / 8x8dct=1 / cqm=0 / deadzone=21,11 / fast_pskip=1 / chroma_qp_offset=-3 / threads=32 / lookahead_threads=4 / sliced_threads=0 / nr=0 / decimate=1 / interlaced=0 / bluray_compat=0 / constrained_intra=0 / bframes=3 / b_pyramid=2 / b_adapt=2 / b_bias=0 / direct=3 / weightb=1 / open_gop=0 / weightp=2 / keyint=250 / keyint_min=25 / scenecut=40 / intra_refresh=0 / rc_lookahead=50 / rc=2pass / mbtree=1 / bitrate=2500 / ratetol=1.0 / qcomp=0.60 / qpmin=0 / qpmax=69 / qpstep=4 / cplxblur=20.0 / qblur=0.5 / vbv_maxrate=31250 / vbv_bufsize=31250 / nal_hrd=none / filler=0 / ip_ratio=1.40 / aq=3:1.00
Encoded date : UTC 2019-08-31 10:12:14
Tagged date : UTC 2019-08-31 10:12:14
Codec configuration box : avcC

Audio
ID : 2
Format : AAC LC
Format/Info : Advanced Audio Codec Low Complexity
Codec ID : mp4a-40-2
Duration : 3 h 55 min
Bit rate mode : Constant
Bit rate : 224 kb/s
Channel(s) : 6 channels
Channel layout : C L R Ls Rs LFE
Sampling rate : 48.0 kHz
Frame rate : 46.875 FPS (1024 SPF)
Compression mode : Lossy
Stream size : 377 MiB (8%)
Language : English
Default : Yes
Alternate group : 1
Encoded date : UTC 2019-08-31 10:12:14
Tagged date : UTC 2019-08-31 10:12:14
Powrót do góry
Ogląda profil użytkownika Wyślij prywatną wiadomość
Reklamiarz
Członek zespołu








Ostrzeżenia:

PostWysłany: Pon Lis 11, 2019 20:02    Temat postu: Klikając w reklamę wspierasz serwis



Powrót do góry
peciaq
Członek Zespołu NapiProjekt



Dołączył: 07 Maj 2010
Posty: 320

Podziękował: 3
Łącznie otrzymał 10 podziękowań w 10 postach

Skąd: Wrocław Ostrzeżenia: 0/5

PostWysłany: Czw Lis 14, 2019 00:22    Temat postu: Odpowiedz z cytatem

Ale co dokładnie tym razem nie działa? Napiprojekt nie znajduje (wersja na PC) czy NapiDroid znowu?
Powrót do góry
Ogląda profil użytkownika Wyślij prywatną wiadomość Odwiedź stronę autora
sharimsejn



Dołączył: 12 Wrz 2013
Posty: 42

Podziękował: 0
Łącznie otrzymał 1 podziękowań w 1 postach

Ostrzeżenia: 0/5

PostWysłany: Czw Lis 14, 2019 00:35    Temat postu: Odpowiedz z cytatem

Nie wrzucałem w dziale napidroid więc chodzi o program pc. To samo wieczorem ostatnim miałem z Powrotem Króla, musiałem ściągnąć ręcznie bo program nie znalazł, a napki są dobre do pobranego filmu.
Powrót do góry
Ogląda profil użytkownika Wyślij prywatną wiadomość
peciaq
Członek Zespołu NapiProjekt



Dołączył: 07 Maj 2010
Posty: 320

Podziękował: 3
Łącznie otrzymał 10 podziękowań w 10 postach

Skąd: Wrocław Ostrzeżenia: 0/5

PostWysłany: Pią Lis 15, 2019 16:36    Temat postu: Odpowiedz z cytatem

Powodów może być wiele. Nie zostały jeszcze zmoderowane na przykład. Albo zostały i zostały usunięte z jakiegoś powodu (wtedy dostałbyś też maila z informacją o powodzie odrzucenia, no chyba że założyłeś konto na fejkowy adres). Najlepiej podaj ID pliku, jeśli faktycznie chcesz jakiegoś rozwiązania, bo takie gdybanie na forum nam nic nie da.
Powrót do góry
Ogląda profil użytkownika Wyślij prywatną wiadomość Odwiedź stronę autora
sharimsejn



Dołączył: 12 Wrz 2013
Posty: 42

Podziękował: 0
Łącznie otrzymał 1 podziękowań w 1 postach

Ostrzeżenia: 0/5

PostWysłany: Sob Lis 16, 2019 11:20    Temat postu: Odpowiedz z cytatem

A które to id? Podałem pełne info, o które napisy chodzi i film. Mogę to samo zrobić z powrotem króla. Napisy są z 2014 i pasują idealnie po rozmiarze, czasie trwania i formacie pliku.
Powrót do góry
Ogląda profil użytkownika Wyślij prywatną wiadomość
peciaq
Członek Zespołu NapiProjekt



Dołączył: 07 Maj 2010
Posty: 320

Podziękował: 3
Łącznie otrzymał 10 podziękowań w 10 postach

Skąd: Wrocław Ostrzeżenia: 0/5

PostWysłany: Sob Lis 16, 2019 14:45    Temat postu: Odpowiedz z cytatem

PPM na ikonkę Napiprojekt -> Pokaż parametry filmu -> wskazujesz plik -> z okienka kopiujesz pozycję ID filmu.
Powrót do góry
Ogląda profil użytkownika Wyślij prywatną wiadomość Odwiedź stronę autora
sharimsejn



Dołączył: 12 Wrz 2013
Posty: 42

Podziękował: 0
Łącznie otrzymał 1 podziękowań w 1 postach

Ostrzeżenia: 0/5

PostWysłany: Nie Lis 17, 2019 12:29    Temat postu: Odpowiedz z cytatem

ID Dwie wieże: 5cc966e7ecdf12b667f306b1b4020f8c
ID Powrót Króla: 6da673516dd33553b2536a9d4d61355c
Powrót do góry
Ogląda profil użytkownika Wyślij prywatną wiadomość
Wyświetl posty z ostatnich:   
Napisz nowy temat   Odpowiedz do tematu    Forum forum.napiprojekt.pl Strona Główna -> Błędy Wszystkie czasy w strefie CET (Europa)
Strona 1 z 1

 
Skocz do:  
Nie możesz pisać nowych tematów
Nie możesz odpowiadać w tematach
Nie możesz zmieniać swoich postów
Nie możesz usuwać swoich postów
Nie możesz głosować w ankietach


RSS

Powered by phpBB © 2001, 2005 phpBB Group