Forum forum.napiprojekt.pl Strona Główna


 FAQFAQ  RegulaminRegulamin   SzukajSzukaj   GrupyGrupy   RejestracjaRejestracja 
 ProfilProfil   Zaloguj się, by sprawdzić wiadomościZaloguj się, by sprawdzić wiadomości   ZalogujZaloguj  

Przełęcz ocalonych (2016) Hacksaw Ridge

 
Napisz nowy temat   Odpowiedz do tematu    Forum forum.napiprojekt.pl Strona Główna -> Dział tłumaczeń - filmy
Zobacz poprzedni temat :: Zobacz następny temat  
Autor Wiadomość
kalinkus28



Dołączył: 09 Mar 2012
Posty: 260

Podziękował: 1
Łącznie otrzymał 1 podziękowań w 1 postach

Ostrzeżenia: 1/5

PostWysłany: Nie Gru 18, 2016 15:06    Temat postu: Przełęcz ocalonych (2016) Hacksaw Ridge Odpowiedz z cytatem

Hacksaw Ridge 2016 HDCAM x264 AC3-TuttyFruity.mkv
Format : MKV
File size : 1.93 GiB
Duration : 2 h 2 min
Overall bit rate mode : Variable
Overall bit rate : 2 252 kb/s
Video
Format : AVC
Format/Info : Advanced Video Codec
Format profile : High@L4.2
Format settings, CABAC : Yes
Format settings, ReFrames : 4 frames
Codec ID : V_MPEG4/ISO/AVC
Duration : 2 h 2 min
Bit rate mode : Variable
Bit rate : 2 000 kb/s
Maximum bit rate : 62.5 Mb/s
Width : 720 pixels
Height : 320 pixels
Display aspect ratio : 2.25:1
Frame rate mode : Constant
Frame rate : 30.000 FPS
Color space : YUV
Chroma subsampling : 4:2:0
Bit depth : 8 bits
Scan type : Progressive
Bits/(Pixel*Frame) : 0.289
Stream size : 1.67 GiB
Audio
Hacksaw Ridge 2016 HDCAM x264 AC3-TuttyFruity.mkv
Format : AC-3
Format/Info : Audio Coding 3
Mode extension : CM (complete main)
Format settings, Endianness : Big
Codec ID : A_AC3
Duration : 2 h 2 min
Bit rate mode : Constant
Bit rate : 256 kb/s
Channel(s) : 2 channels
Channel positions : Front: L R
Sampling rate : 48.0 kHz
Frame rate : 31.250 FPS (1536 spf)
Compression mode : Lossy
Stream size : 225 MiB (11%)
Default : Yes
Forced : No
Powrót do góry
Ogląda profil użytkownika Wyślij prywatną wiadomość
Reklamiarz
Członek zespołu








Ostrzeżenia:

PostWysłany: Nie Gru 18, 2016 15:06    Temat postu: Klikając w reklamę wspierasz serwis



Powrót do góry
Wyświetl posty z ostatnich:   
Napisz nowy temat   Odpowiedz do tematu    Forum forum.napiprojekt.pl Strona Główna -> Dział tłumaczeń - filmy Wszystkie czasy w strefie CET (Europa)
Strona 1 z 1

 
Skocz do:  
Nie możesz pisać nowych tematów
Nie możesz odpowiadać w tematach
Nie możesz zmieniać swoich postów
Nie możesz usuwać swoich postów
Nie możesz głosować w ankietach


RSS

Powered by phpBB © 2001, 2005 phpBB Group