Forum forum.napiprojekt.pl Strona Główna


 FAQFAQ  RegulaminRegulamin   SzukajSzukaj   GrupyGrupy   RejestracjaRejestracja 
 ProfilProfil   Zaloguj się, by sprawdzić wiadomościZaloguj się, by sprawdzić wiadomości   ZalogujZaloguj  

Wall Street Money Never Sleeps R5 LiNE XViD-LEGi0N

 
Napisz nowy temat   Odpowiedz do tematu    Forum forum.napiprojekt.pl Strona Główna -> Dział tłumaczeń - filmy
Zobacz poprzedni temat :: Zobacz następny temat  
Autor Wiadomość
goku92



Dołączył: 12 Sie 2010
Posty: 24

Podziękował: 0
Łącznie otrzymał 0 podziękowań w 0 postach

Ostrzeżenia: 0/5

PostWysłany: Sob Paź 23, 2010 10:21    Temat postu: Wall Street Money Never Sleeps R5 LiNE XViD-LEGi0N Odpowiedz z cytatem

Proszę o napisy do:
Wall Street Money Never Sleeps R5 LiNE XViD-LEGi0N

Dane:
General
Format: AVI
File size: 1.36 GiB
Duration: 2h 7mn
Overall bit rate: 1 527 Kbps
IMDb Rating: 6.7/10
Genre: |Drama|
Release: 24 September 2010 (USA)
IMDb Link: http://www.imdb.com/title/tt1027718/
Youtube Link: http://www.imdb.com/video/imdb/vi875627545/
Source: ViDEO (ELEKTRI4KA Thanks!!) AUDiO (LAP Thanks!!)
Encoded By : TH0RN

Video
Format: MPEG-4 Visual
Format profile : Advanced Simple@L5
Format settings, QPel: No
Format settings, GMC: No warppoints
Format settings, Matrix: Default (H.263)
Muxing mode: Packed bitstream
Codec ID: XVID
Bit rate: 1 138 Kbps
Width: 720 pixels
Height: 304 pixels
Display aspect ratio: 2.35:1
Frame rate: 25.000 fps
Chroma subsampling: 4:2:0
Bit depth: 24 bits
Scan type: Progressive
Bits/(Pixel*Frame): 0.258
Stream size: 1.26 GiB (93%)

Audio
Format: VBR-MP3
Bit rate mode: Constant
Bit rate: 112 Kbps
Channel(s): 2 channels
Sampling rate: 44.1 KHz
Stream size: 95.8 MiB (7%)
Powrót do góry
Ogląda profil użytkownika Wyślij prywatną wiadomość
Reklamiarz
Członek zespołu








Ostrzeżenia:

PostWysłany: Sob Paź 23, 2010 10:21    Temat postu: Klikając w reklamę wspierasz serwis



Powrót do góry
eddiash



Dołączył: 30 Paź 2010
Posty: 6

Podziękował: 0
Łącznie otrzymał 0 podziękowań w 0 postach

Ostrzeżenia: 0/5

PostWysłany: Sob Paź 30, 2010 11:24    Temat postu: Odpowiedz z cytatem

film tak w kinie, jak w sieci hula już jakiś czas... nadal nie ma do niego napisów?
Powrót do góry
Ogląda profil użytkownika Wyślij prywatną wiadomość
pavelekss



Dołączył: 30 Paź 2010
Posty: 1

Podziękował: 0
Łącznie otrzymał 0 podziękowań w 0 postach

Ostrzeżenia: 0/5

PostWysłany: Sob Paź 30, 2010 18:59    Temat postu: Odpowiedz z cytatem

Jakieś 3 dni temu widziałem że ktoś tłumaczył na napisy24.pl nawet podał że już przetłumaczone w 10%
Natomiast wczoraj tłumaczenie zniknęło. I chyba nikt tego filmu nie tłumaczy.
Powrót do góry
Ogląda profil użytkownika Wyślij prywatną wiadomość Odwiedź stronę autora
mishka89



Dołączył: 31 Paź 2010
Posty: 1

Podziękował: 0
Łącznie otrzymał 0 podziękowań w 0 postach

Ostrzeżenia: 0/5

PostWysłany: Nie Paź 31, 2010 11:54    Temat postu: Odpowiedz z cytatem

no właśnie ja też szukałam do niego napisów i nadal pustka:/ nie chcę oglądać bez bo, chociaż znam angielski całkiem nieźle, to i tak wszystkiego nie da się zrozumieć... eh lipa trochę...
Powrót do góry
Ogląda profil użytkownika Wyślij prywatną wiadomość
mzetka3



Dołączył: 16 Mar 2010
Posty: 3

Podziękował: 0
Łącznie otrzymał 0 podziękowań w 0 postach

Ostrzeżenia: 0/5

PostWysłany: Nie Paź 31, 2010 18:59    Temat postu: Odpowiedz z cytatem

Za tłumaczenie ponoć chce się zabrać grupa Kinomania. Wink
Powrót do góry
Ogląda profil użytkownika Wyślij prywatną wiadomość
eddiash



Dołączył: 30 Paź 2010
Posty: 6

Podziękował: 0
Łącznie otrzymał 0 podziękowań w 0 postach

Ostrzeżenia: 0/5

PostWysłany: Sro Lis 03, 2010 22:11    Temat postu: Odpowiedz z cytatem

kinomania skończyła robienie napisów
Powrót do góry
Ogląda profil użytkownika Wyślij prywatną wiadomość
bugmenot12



Dołączył: 18 Sty 2017
Posty: 1

Podziękował: 0
Łącznie otrzymał 0 podziękowań w 0 postach

Ostrzeżenia: 0/5

PostWysłany: Czw Lip 28, 2022 17:34    Temat postu: Odpowiedz z cytatem

I used to be skeptical about this kind of earnings, but once I tried it, I could not stop. After all, it brings good earnings. The first time I bought cryptocurrency with a big commission. But now I found convenient place https://j2tx.com/buy-bitcoin/with-card, where I can buy cryptocurrency without commission. It has all the handy tools you need to successfully buy cryptocurrency.
Powrót do góry
Ogląda profil użytkownika Wyślij prywatną wiadomość
Wyświetl posty z ostatnich:   
Napisz nowy temat   Odpowiedz do tematu    Forum forum.napiprojekt.pl Strona Główna -> Dział tłumaczeń - filmy Wszystkie czasy w strefie CET (Europa)
Strona 1 z 1

 
Skocz do:  
Nie możesz pisać nowych tematów
Nie możesz odpowiadać w tematach
Nie możesz zmieniać swoich postów
Nie możesz usuwać swoich postów
Nie możesz głosować w ankietach


RSS

Powered by phpBB © 2001, 2005 phpBB Group