Forum forum.napiprojekt.pl Strona Główna


 FAQFAQ  RegulaminRegulamin   SzukajSzukaj   GrupyGrupy   RejestracjaRejestracja 
 ProfilProfil   Zaloguj się, by sprawdzić wiadomościZaloguj się, by sprawdzić wiadomości   ZalogujZaloguj  

Orange Is The New Black

 
Napisz nowy temat   Odpowiedz do tematu    Forum forum.napiprojekt.pl Strona Główna -> Dział tłumaczeń - seriale
Zobacz poprzedni temat :: Zobacz następny temat  
Autor Wiadomość
szelman



Dołączył: 15 Maj 2009
Posty: 35

Podziękował: 0
Łącznie otrzymał 0 podziękowań w 0 postach

Ostrzeżenia: 0/5

PostWysłany: Czw Lip 31, 2014 08:58    Temat postu: Orange Is The New Black Odpowiedz z cytatem

Witam

General
Unique ID : 133823749009924332997587912945798526945 (0x64AD843C8B6BD731929F28A5B920B7E1)
Format : Matroska
Format version : Version 4 / Version 2
File size : 2.51 GiB
Duration : 1h 32mn
Overall bit rate : 3 908 Kbps
Encoded date : UTC 2014-06-08 01:53:57
Writing application : mkvmerge v6.2.0 ('Promised Land') built on Apr 28 2013 08:01:15
Writing library : libebml v1.3.0 + libmatroska v1.4.0

Video
ID : 1
Format : AVC
Format/Info : Advanced Video Codec
Format profile : High@L4.1
Format settings, CABAC : Yes
Format settings, ReFrames : 5 frames
Codec ID : V_MPEG4/ISO/AVC
Duration : 1h 32mn
Bit rate : 3 190 Kbps
Width : 1 280 pixels
Height : 720 pixels
Display aspect ratio : 16:9
Frame rate mode : Constant
Frame rate : 23.976 fps
Color space : YUV
Chroma subsampling : 4:2:0
Bit depth : 8 bits
Scan type : Progressive
Bits/(Pixel*Frame) : 0.144
Stream size : 2.05 GiB (82%)
Writing library : x264 core 142 r2431 ac76440
Encoding settings : cabac=1 / ref=5 / deblock=1:0:0 / analyse=0x3:0x113 / me=umh / subme=8 / psy=1 / psy_rd=1.00:0.00 / mixed_ref=1 / me_range=16 / chroma_me=1 / trellis=1 / 8x8dct=1 / cqm=0 / deadzone=21,11 / fast_pskip=1 / chroma_qp_offset=-2 / threads=12 / lookahead_threads=2 / sliced_threads=0 / nr=0 / decimate=1 / interlaced=0 / bluray_compat=0 / constrained_intra=0 / bframes=3 / b_pyramid=2 / b_adapt=2 / b_bias=0 / direct=3 / weightb=1 / open_gop=0 / weightp=2 / keyint=250 / keyint_min=23 / scenecut=40 / intra_refresh=0 / rc_lookahead=50 / rc=crf / mbtree=1 / crf=18.0 / qcomp=0.60 / qpmin=0 / qpmax=69 / qpstep=4 / ip_ratio=1.40 / aq=1:1.00
Language : English
Default : Yes
Forced : No
Matrix coefficients : BT.709

Audio
ID : 2
Format : AC-3
Format/Info : Audio Coding 3
Mode extension : CM (complete main)
Format settings, Endianness : Big
Codec ID : A_AC3
Duration : 1h 32mn
Bit rate mode : Constant
Bit rate : 640 Kbps
Channel(s) : 6 channels
Channel positions : Front: L C R, Side: L R, LFE
Sampling rate : 48.0 KHz
Bit depth : 16 bits
Compression mode : Lossy
Stream size : 422 MiB (16%)
Default : Yes
Forced : No
Powrót do góry
Ogląda profil użytkownika Wyślij prywatną wiadomość
Reklamiarz
Członek zespołu








Ostrzeżenia:

PostWysłany: Czw Lip 31, 2014 08:58    Temat postu: Klikając w reklamę wspierasz serwis



Powrót do góry
rosashows



Dołączył: 01 Paź 2020
Posty: 1

Podziękował: 0
Łącznie otrzymał 0 podziękowań w 0 postach

Ostrzeżenia: 0/5

PostWysłany: Wto Paź 06, 2020 06:23    Temat postu: Odpowiedz z cytatem

Rahim and all plant is a field for the quantity for Allis?s for the changes. The element of the quantum and resume help services is partial for success. Elements quantified for the mid of the plant for the paths for all issues.
Powrót do góry
Ogląda profil użytkownika Wyślij prywatną wiadomość
Wyświetl posty z ostatnich:   
Napisz nowy temat   Odpowiedz do tematu    Forum forum.napiprojekt.pl Strona Główna -> Dział tłumaczeń - seriale Wszystkie czasy w strefie CET (Europa)
Strona 1 z 1

 
Skocz do:  
Nie możesz pisać nowych tematów
Nie możesz odpowiadać w tematach
Nie możesz zmieniać swoich postów
Nie możesz usuwać swoich postów
Nie możesz głosować w ankietach


RSS

Powered by phpBB © 2001, 2005 phpBB Group