Forum forum.napiprojekt.pl Strona Główna


 FAQFAQ  RegulaminRegulamin   SzukajSzukaj   GrupyGrupy   RejestracjaRejestracja 
 ProfilProfil   Zaloguj się, by sprawdzić wiadomościZaloguj się, by sprawdzić wiadomości   ZalogujZaloguj  

Ip Man- The Final Fight (2013)

 
Napisz nowy temat   Odpowiedz do tematu    Forum forum.napiprojekt.pl Strona Główna -> Dział tłumaczeń - filmy
Zobacz poprzedni temat :: Zobacz następny temat  
Autor Wiadomość
1flash
VIP



Dołączył: 29 Lis 2008
Posty: 101

Podziękował: 10
Łącznie otrzymał 0 podziękowań w 0 postach

Ostrzeżenia: 0/5

PostWysłany: Nie Maj 05, 2013 16:43    Temat postu: Ip Man- The Final Fight (2013) Odpowiedz z cytatem




Ip.Man.The.Final.Fight.2013.1080p.HDTV.X264.AC3-SmY


Format : Matroska
File size : 3.51 GiB
Duration : 1h 40mn
Overall bit rate : 5 015 Kbps
Writing application : AVI-Mux GUI 1.17.8, Aug 30 2008 12:36:58
Writing library : matroska muxer by Alexander Noe, build date Aug 30 2008
Video #1
ID : 1
Format : AVC
Format/Info : Advanced Video Codec
Format profile : Baseline@L5.0
Format settings, CABAC : No
Format settings, ReFrames : 8 frames
Format settings, GOP : M=1, N=13
Codec ID : H264
Duration : 1h 40mn
Bit rate : 4 723 Kbps
Width : 1 920 pixels
Height : 1 080 pixels
Display aspect ratio : 16:9
Frame rate mode : Variable
Frame rate : 30.000 fps
Color space : YUV
Chroma subsampling : 4:2:0
Bit depth : 8 bits
Scan type : Progressive
Bits/(Pixel*Frame) : 0.076
Stream size : 3.31 GiB (94%)
Language : English
Audio #2
ID : 2
Format : AC-3
Format/Info : Audio Coding 3
Mode extension : CM (complete main)
Codec ID : A_AC3
Duration : 1h 40mn
Bit rate mode : Constant
Bit rate : 192 Kbps
Channel(s) : 6 channels
Channel positions : Front: L C R, Side: L R, LFE
Sampling rate : 48.0 KHz
Bit depth : 16 bits
Compression mode : Lossy
Stream size : 138 MiB (4%)
Language : English
Powrót do góry
Ogląda profil użytkownika Wyślij prywatną wiadomość
Reklamiarz
Członek zespołu








Ostrzeżenia:

PostWysłany: Nie Maj 05, 2013 16:43    Temat postu: Klikając w reklamę wspierasz serwis



Powrót do góry
mablegonzalez



Dołączył: 29 Lip 2020
Posty: 1

Podziękował: 0
Łącznie otrzymał 0 podziękowań w 0 postach

Ostrzeżenia: 5/5

PostWysłany: Sro Wrz 09, 2020 07:35    Temat postu: Odpowiedz z cytatem

A patent right is followed for the antique for the field. The situation of the sorts and samedayessay review is implemented for the targeted element for the scenes. The part is played or the mid of the options for all flexible means for humans.
Powrót do góry
Ogląda profil użytkownika Wyślij prywatną wiadomość
Wyświetl posty z ostatnich:   
Napisz nowy temat   Odpowiedz do tematu    Forum forum.napiprojekt.pl Strona Główna -> Dział tłumaczeń - filmy Wszystkie czasy w strefie CET (Europa)
Strona 1 z 1

 
Skocz do:  
Nie możesz pisać nowych tematów
Nie możesz odpowiadać w tematach
Nie możesz zmieniać swoich postów
Nie możesz usuwać swoich postów
Nie możesz głosować w ankietach


RSS

Powered by phpBB © 2001, 2005 phpBB Group