Forum forum.napiprojekt.pl Strona Główna


 FAQFAQ  RegulaminRegulamin   SzukajSzukaj   GrupyGrupy   RejestracjaRejestracja 
 ProfilProfil   Zaloguj się, by sprawdzić wiadomościZaloguj się, by sprawdzić wiadomości   ZalogujZaloguj  

Aladdin 2019 - prośba

 
Napisz nowy temat   Odpowiedz do tematu    Forum forum.napiprojekt.pl Strona Główna -> Dział tłumaczeń - filmy
Zobacz poprzedni temat :: Zobacz następny temat  
Autor Wiadomość
sharimsejn



Dołączył: 12 Wrz 2013
Posty: 33

Podziękował: 0
Łącznie otrzymał 1 podziękowań w 1 postach

Ostrzeżenia: 0/5

PostWysłany: Wto Wrz 10, 2019 19:17    Temat postu: Aladdin 2019 - prośba Odpowiedz z cytatem

Minęło trochę czasu, a napków ani widu ani słychu

Video
ID : 1
Format : AVC
Format/Info : Advanced Video Codec
Format profile : High@L4.1
Format settings : CABAC / 5 Ref Frames
Format settings, CABAC : Yes
Format settings, Reference frames : 5 frames
Codec ID : V_MPEG4/ISO/AVC
Duration : 2 h 7 min
Bit rate : 5 825 kb/s
Width : 1 280 pixels
Height : 536 pixels
Display aspect ratio : 2.40:1
Frame rate mode : Constant
Frame rate : 23.976 (24000/1001) FPS
Color space : YUV
Chroma subsampling : 4:2:0
Bit depth : 8 bits
Scan type : Progressive
Bits/(Pixel*Frame) : 0.354
Stream size : 5.21 GiB (79%)
Writing library : x264 core 158 r2984 3759fcb
Encoding settings : cabac=1 / ref=5 / deblock=1:-3:-3 / analyse=0x3:0x113 / me=umh / subme=8 / psy=1 / psy_rd=1.00:0.00 / mixed_ref=1 / me_range=16 / chroma_me=1 / trellis=1 / 8x8dct=1 / cqm=0 / deadzone=21,11 / fast_pskip=1 / chroma_qp_offset=-2 / threads=17 / lookahead_threads=2 / sliced_threads=0 / nr=0 / decimate=1 / interlaced=0 / bluray_compat=0 / constrained_intra=0 / bframes=3 / b_pyramid=2 / b_adapt=1 / b_bias=0 / direct=3 / weightb=1 / open_gop=0 / weightp=2 / keyint=250 / keyint_min=23 / scenecut=40 / intra_refresh=0 / rc_lookahead=50 / rc=2pass / mbtree=1 / bitrate=5825 / ratetol=1.0 / qcomp=0.60 / qpmin=0 / qpmax=69 / qpstep=4 / cplxblur=20.0 / qblur=0.5 / ip_ratio=1.40 / aq=1:1.00
Language : English
Default : Yes
Forced : No

Audio
ID : 2
Format : DTS
Format/Info : Digital Theater Systems
Codec ID : A_DTS
Duration : 2 h 7 min
Bit rate mode : Constant
Bit rate : 1 509 kb/s
Channel(s) : 6 channels
Channel layout : C L R Ls Rs LFE
Sampling rate : 48.0 kHz
Frame rate : 93.750 FPS (512 SPF)
Bit depth : 24 bits
Compression mode : Lossy
Stream size : 1.35 GiB (21%)
Language : English
Default : Yes
Forced : No
Powrót do góry
Ogląda profil użytkownika Wyślij prywatną wiadomość
Reklamiarz
Członek zespołu








Ostrzeżenia:

PostWysłany: Wto Wrz 10, 2019 19:17    Temat postu: Klikając w reklamę wspierasz serwis



Powrót do góry
Wyświetl posty z ostatnich:   
Napisz nowy temat   Odpowiedz do tematu    Forum forum.napiprojekt.pl Strona Główna -> Dział tłumaczeń - filmy Wszystkie czasy w strefie CET (Europa)
Strona 1 z 1

 
Skocz do:  
Nie możesz pisać nowych tematów
Nie możesz odpowiadać w tematach
Nie możesz zmieniać swoich postów
Nie możesz usuwać swoich postów
Nie możesz głosować w ankietach


RSS

Powered by phpBB © 2001, 2005 phpBB Group