Forum forum.napiprojekt.pl Strona Główna


 FAQFAQ  RegulaminRegulamin   SzukajSzukaj   GrupyGrupy   RejestracjaRejestracja 
 ProfilProfil   Zaloguj się, by sprawdzić wiadomościZaloguj się, by sprawdzić wiadomości   ZalogujZaloguj  

The Three Stooges 2012

 
Napisz nowy temat   Odpowiedz do tematu    Forum forum.napiprojekt.pl Strona Główna -> Napisy dla osób niesłyszących
Zobacz poprzedni temat :: Zobacz następny temat  
Autor Wiadomość
olchpali



Dołączył: 28 Paź 2012
Posty: 4

Podziękował: 0
Łącznie otrzymał 0 podziękowań w 0 postach

Ostrzeżenia: 0/5

PostWysłany: Czw Lis 01, 2012 15:34    Temat postu: The Three Stooges 2012 Odpowiedz z cytatem

Jestem osoba niesłysząca, a bardzo chciałbym napisy do tego film "The Three Stooges 2012"
The.Three.Stooges.2012.1080p.BrRip.YIFY+HI
Proszę bardzo o odpowiedz.
Powrót do góry
Ogląda profil użytkownika Wyślij prywatną wiadomość
Reklamiarz
Członek zespołu








Ostrzeżenia:

PostWysłany: Czw Lis 01, 2012 15:34    Temat postu: Klikając w reklamę wspierasz serwis



Powrót do góry
olchpali



Dołączył: 28 Paź 2012
Posty: 4

Podziękował: 0
Łącznie otrzymał 0 podziękowań w 0 postach

Ostrzeżenia: 0/5

PostWysłany: Nie Lis 25, 2012 15:47    Temat postu: The Three Stooges 2012 Odpowiedz z cytatem

Dlaczego nie piszesz na odpowiedz ? Czekam na napisy z flimie o tym?
Powrót do góry
Ogląda profil użytkownika Wyślij prywatną wiadomość
o1okti
Tłumacz NAPIerce-SQUAD



Dołączył: 15 Kwi 2012
Posty: 182

Podziękował: 8
Łącznie otrzymał 21 podziękowań w 21 postach

Ostrzeżenia: 0/5

PostWysłany: Nie Lis 25, 2012 16:27    Temat postu: Odpowiedz z cytatem

A dlaczego Ty nie czytasz ogłoszeń w tym dziale?
Ten dział jest przeznaczony do kierowania próśb o napisy do filmów i seriali produkcji polskiej. Prośby o tłumaczenia piszemy w innych działach.
_________________


Powrót do góry
Ogląda profil użytkownika Wyślij prywatną wiadomość
1flash
VIP



Dołączył: 29 Lis 2008
Posty: 98

Podziękował: 10
Łącznie otrzymał 0 podziękowań w 0 postach

Ostrzeżenia: 0/5

PostWysłany: Sob Sty 26, 2013 10:54    Temat postu: Odpowiedz z cytatem

The.Three.Stooges.2012.720p.BrRip.YIFY+HI.mp4

Format : MPEG-4
Format profile : Base Media
Codec ID : isom
File size : 600 MiB
Duration : 1h 32mn
Overall bit rate mode : Variable
Overall bit rate : 912 Kbps
Encoded date : UTC 2012-07-24 23:04:40
Tagged date : UTC 2012-07-24 23:04:40

Video
ID : 1
Format : AVC
Format/Info : Advanced Video Codec
Format profile : High@L4.0
Format settings, CABAC : Yes
Format settings, ReFrames : 9 frames
Codec ID : avc1
Codec ID/Info : Advanced Video Coding
Duration : 1h 32mn
Bit rate : 816 Kbps
Maximum bit rate : 4 375 Kbps
Width : 1 280 pixels
Height : 688 pixels
Display aspect ratio : 1.85:1
Frame rate mode : Constant
Frame rate : 23.976 fps
Color space : YUV
Chroma subsampling : 4:2:0
Bit depth : 8 bits
Scan type : Progressive
Bits/(Pixel*Frame) : 0.039
Stream size : 537 MiB (89%)
Writing library : x264 core 125 r2200




The.Three.Stooges.2012.1080p.BrRip.YIFY+HI.mp4

Format : MPEG-4
Format profile : Base Media
Codec ID : isom
File size : 1.20 GiB
Duration : 1h 32mn
Overall bit rate : 1 865 Kbps
Encoded date : UTC 2012-07-22 16:40:33
Tagged date : UTC 2012-07-22 16:40:33

Video
ID : 1
Format : AVC
Format/Info : Advanced Video Codec
Format profile : High@L4.0
Format settings, CABAC : Yes
Format settings, ReFrames : 4 frames
Codec ID : avc1
Codec ID/Info : Advanced Video Coding
Duration : 1h 32mn
Bit rate : 1 766 Kbps
Maximum bit rate : 7 837 Kbps
Width : 1 920 pixels
Height : 1 040 pixels
Display aspect ratio : 1.85:1
Frame rate mode : Constant
Frame rate : 23.976 fps
Color space : YUV
Chroma subsampling : 4:2:0
Bit depth : 8 bits
Scan type : Progressive
Bits/(Pixel*Frame) : 0.037
Stream size : 1.14 GiB (95%)
Powrót do góry
Ogląda profil użytkownika Wyślij prywatną wiadomość
mariusz135



Dołączył: 18 Gru 2011
Posty: 99

Podziękował: 1
Łącznie otrzymał 0 podziękowań w 0 postach

Ostrzeżenia: 1/5

PostWysłany: Czw Mar 19, 2015 20:39    Temat postu: Odpowiedz z cytatem

Ja też jestem osobą nie słyszącą dla tego przyłączam się do prośby Smile
Powrót do góry
Ogląda profil użytkownika Wyślij prywatną wiadomość
mariusz135



Dołączył: 18 Gru 2011
Posty: 99

Podziękował: 1
Łącznie otrzymał 0 podziękowań w 0 postach

Ostrzeżenia: 1/5

PostWysłany: Czw Mar 19, 2015 20:43    Temat postu: Odpowiedz z cytatem

Ja mam taki :

Nazwa pliku: the.three.stooges.2012.dvdrip.xvid-amiable.avi
ID filmu: 3eef0f9c1651f482cd851e2240971a34

Rozmiar pliku: 699.8 MiB (733841408 bajtów)
Czas trwania: 01:32:03.984 (5523984 ms)
Ogólne bitrate pliku: 1 063 Kbps
Format: AVI

Video FPS: 23.976
Video kodek: XviD
Video bitrate: 919 Kbps
Video rozdzielczość: 624x336
Video rozmiar: 605 MiB (87%)
Video proporcje obrazu: 1.857

Audio format: MPEG Audio
Audio format wynik:
Audio bitrate: 128 Kbps
Audio liczba kanałów: 2
Audio sampling rate: 48.0 KHz
Audio resolution:
Audio rozmiar: 86.0 MiB (12%)
==================================
Powrót do góry
Ogląda profil użytkownika Wyślij prywatną wiadomość
sylwunia1978



Dołączył: 20 Wrz 2015
Posty: 4

Podziękował: 0
Łącznie otrzymał 0 podziękowań w 0 postach

Ostrzeżenia: 0/5

PostWysłany: Sob Paź 17, 2015 10:35    Temat postu: Odpowiedz z cytatem

witam, czy temat wciąż aktualny ?
Powrót do góry
Ogląda profil użytkownika Wyślij prywatną wiadomość
Wyświetl posty z ostatnich:   
Napisz nowy temat   Odpowiedz do tematu    Forum forum.napiprojekt.pl Strona Główna -> Napisy dla osób niesłyszących Wszystkie czasy w strefie CET (Europa)
Strona 1 z 1

 
Skocz do:  
Nie możesz pisać nowych tematów
Nie możesz odpowiadać w tematach
Nie możesz zmieniać swoich postów
Nie możesz usuwać swoich postów
Nie możesz głosować w ankietach


RSS

Powered by phpBB © 2001, 2005 phpBB Group